[Login] or [Signup]
Login
Username:
Password:
[Signup]
[Recover Account]


Poll


You must be logged in to view polls



Torrent Details For "Monster High Ghouls Rule! (2012) BluRay 720p x264 [Dual Audio] [Hindi DD 5.1 - Eng 2.0] AAC Esu..."

Monster High Ghouls Rule! (2012) BluRay 720p x264 [Dual Audio] [Hindi DD 5.1 - Eng 2.0] AAC Esu...

Download this torrent | Magnet Download
Health:
Seeds: 16
Leechers: 8
Completed:
Last Checked: 17-05-2018 08:29:57
External Torrent
Update Stats
Download Magnet


Poster


iMDB
Imdb Picture Title: Monster High: Ghouls Rule!
Year: 2012
Runtime: 71 minutes
Votes: 583
Rating: 5.9/10
Language: English
Country: USA
All Genres: Animation, Family
Plot Outline: When the freaky-fab guys and ghouls of Monster High get wrongly accused of Halloween high jinx by a group of normies, things get spooky. But can they prove their innocence in time for a spooktacular celebration?


Director: Mike Fetterly
Steve Sacks
Writing By: Mike Montesano,Ted Zizik,
Produced By: Tina Chow,Ken Faier,Asaph Fipke,Chuck Johnson,Audu Paden,Maria Elena Rodriguez,Lauren Rose,Ira Singerman,
Cast:
Erin Fitzgerald as Abbey Bominable / C.A. Cupid / Clair / Kid #2 / Rochelle Goyle / Spectra Vondergeist
Steve Staley as Chad / Kid #1
Ogie Banks as Clawd Wolf
Salli Saffioti as Clawdeen Wolf / Cleo DeNile
Evan Smith as Deuce Gorgon / Gil Webber / Thad
Debi Derryberry as Draculaura
Kate Higgins as Frankie Stein / Lilith Van Helscream
Mark Mercado as Gargoyle
Audu Paden as Ghoulia Yelps / New Salem High Principal / Manny Taur / Mr. Hack / Ramses DeNile / Sheriff
Ira Singerman as Goon #1
Trailers:
Monster High: Ghouls Rule


Watch-Free-HD     Download

Details
Name:Monster High Ghouls Rule! (2012) BluRay 720p x264 [Dual Audio] [Hindi DD 5.1 - Eng 2.0] AAC Esu...
Description:
Monster High Ghouls Rule! (2012) BluRay 720p x264 [Dual Audio] [Hindi DD 5.1 - Eng 2.0] AAC Esub -=!Katyayan!=-

 

Thanks To -Ð@Rk.ÐèVi£- For Hindi Audio

Format                                   : Matroska
Format version                           : Version 4 / Version 2
File size                                : 648 MiB
Duration                                 : 1 h 11 min
Overall bit rate                         : 1 270 kb/s
Movie name                               : Monster High Ghouls Rule! (2012) BluRay 720p x264 [Dual Audio] [Hindi DD 5.1 - Eng 2.0] AAC Esub -=!Katyayan!=-
Encoded date                             : UTC 2018-05-17 06:48:02
Writing application                      : mkvmerge v19.0.0 ('Brave Captain') 32-bit
Writing library                          : libebml v1.3.5 + libmatroska v1.4.8

Video
ID                                       : 1
Format                                   : AVC
Format/Info                              : Advanced Video Codec
Format profile                           : [email protected]
Format settings                          : CABAC / 9 Ref Frames
Format settings, CABAC                   : Yes
Format settings, RefFrames               : 9 frames
Codec ID                                 : V_MPEG4/ISO/AVC
Duration                                 : 1 h 11 min
Bit rate                                 : 979 kb/s
Width                                    : 1 280 pixels
Height                                   : 720 pixels
Display aspect ratio                     : 16:9
Frame rate mode                          : Constant
Frame rate                               : 23.976 (24000/1001) FPS
Color space                              : YUV
Chroma subsampling                       : 4:2:0
Bit depth                                : 8 bits
Scan type                                : Progressive
Bits/(Pixel*Frame)                       : 0.044
Stream size                              : 499 MiB (77%)
Title                                    : Monster High Ghouls Rule! (2012) BluRay 720p x264 [Dual Audio] [Hindi DD 5.1 - Eng 2.0] AAC Esub -=!Katyayan!=-
Writing library                          : x264 core 125 r2200 999b753
Encoding settings                        : cabac=1 / ref=9 / deblock=1:0:0 / analyse=0x3:0x113 / me=hex / subme=7 / psy=1 / psy_rd=1.00:0.00 / mixed_ref=1 / me_range=16 / chroma_me=1 / trellis=1 / 8x8dct=1 / cqm=0 / deadzone=21,11 / fast_pskip=1 / chroma_qp_offset=-2 / threads=6 / lookahead_threads=1 / sliced_threads=0 / nr=0 / decimate=1 / interlaced=0 / bluray_compat=0 / constrained_intra=0 / bframes=8 / b_pyramid=2 / b_adapt=1 / b_bias=0 / direct=1 / weightb=1 / open_gop=0 / weightp=2 / keyint=240 / keyint_min=23 / scenecut=40 / intra_refresh=0 / rc_lookahead=40 / rc=2pass / mbtree=1 / bitrate=979 / ratetol=1.0 / qcomp=0.60 / qpmin=10 / qpmax=51 / qpstep=4 / cplxblur=20.0 / qblur=0.5 / ip_ratio=1.40 / aq=1:1.00
Language                                 : English
Default                                  : Yes
Forced                                   : No

Audio #1
ID                                       : 2
Format                                   : AAC
Format/Info                              : Advanced Audio Codec
Format profile                           : LC
Codec ID                                 : A_AAC-2
Duration                                 : 1 h 11 min
Bit rate                                 : 96.0 kb/s
Channel(s)                               : 2 channels
Channel positions                        : Front: L R
Sampling rate                            : 48.0 kHz
Frame rate                               : 46.875 FPS (1024 SPF)
Compression mode                         : Lossy
Delay relative to video                  : -125 ms
Stream size                              : 49.0 MiB (8%)
Title                                    : -=!Katyayan!=-
Language                                 : English
Default                                  : No
Forced                                   : No

Audio #2
ID                                       : 3
Format                                   : AAC
Format/Info                              : Advanced Audio Codec
Format profile                           : LC
Codec ID                                 : A_AAC-2
Duration                                 : 1 h 11 min
Bit rate                                 : 192 kb/s
Channel(s)                               : 6 channels
Channel positions                        : Front: L C R, Side: L R, LFE
Sampling rate                            : 48.0 kHz
Frame rate                               : 46.875 FPS (1024 SPF)
Compression mode                         : Lossy
Delay relative to video                  : -125 ms
Stream size                              : 98.0 MiB (15%)
Title                                    : -=!Katyayan!=-
Language                                 : Hindi
Default                                  : Yes
Forced                                   : Yes

Text
ID                                       : 4
Format                                   : UTF-8
Codec ID                                 : S_TEXT/UTF8
Codec ID/Info                            : UTF-8 Plain Text
Duration                                 : 1 h 10 min
Bit rate                                 : 83 b/s
Count of elements                        : 1234
Stream size                              : 43.2 KiB (0%)
Title                                    : -=!Katyayan!=-
Language                                 : English
Default                                  : Yes
Forced                                   : Yes

 

Category:Movies > Hollywood Dub
Lang:Hindi
Total Size:648.39 MB
Info Hash:763a78d54ab8d67d5f3550823d601b30d107822d
Added By:Shrawankk
Date Added:17-05-2018 08:28:33
Views:1,112
Hits:60

Download Torrent

Ratings:Not Yet Rated (Log in to rate it)


Tracker:
http://jiotorrents.net/announce.php?pk=b3f8f927ee1db7825e8fb8f05cf83bdb867b85ff


File List: 


Comments

No comments still posted

Powered by 10 Hamsters v2-svn -|- Page Generated In 0.625436 secs.
-|- RSS FEED
Theme By: Nikkbu