[Login] or [Signup]
Login
Username:
Password:
[Signup]
[Recover Account]


Poll


You must be logged in to view polls



Torrent Details For "Jai Lava Kusa 2018 x264 720p Dual Audio Telugu Hindi GOPISAHI"

Jai Lava Kusa 2018 x264 720p Dual Audio Telugu Hindi GOPISAHI

Download this torrent | Magnet Download
Health:
Seeds: 376
Leechers: 125
Completed: 2,940 
Last Checked: 17-05-2018 13:29:40
External Torrent
Update Stats
Download Magnet


Poster


iMDB
Imdb Picture Title: Jai Lava Kusa
Year: 2017
Votes: 842
Rating: 9.1/10
Language: Telugu
Country: India
All Genres: Action, Drama
Plot Outline: Jai, Lava and Kusa are identical triplets whose personalities are very different from each other.
Director: Bobby Kolli
Writing By: Bobby Kolli,Kona Venkat,
Produced By: Kalyan Ram,
Music: Devi Sri Prasad
Cast:
Junior N.T.R. as Jai / Lava / kusa
Rashi Khanna as Priya
Niveda Thomas as Simran
Brahmaji as Rambabu, Bank Assistant Manager
Duniya Vijay as
Posani Krishnamurali as
Ravinder Kolishetty as Officer
Hamsa Nandini as V A Rajini


Watch-Free-HD     Download

Details
Name:Jai Lava Kusa 2018 x264 720p Dual Audio Telugu Hindi GOPISAHI
Description:
drict dwonlod here

 http://www.gopisahi.pw/2018/0...720p-dual-audio.html


Format                         : Matroska
Format version                 : Version 4 / Version 2
File size                      : 816 MiB
Duration                       : 2 h 29 min
Overall bit rate               : 761 kb/s
Movie name                     : Jai Lava Kusa 2018 GOPISAHI

Video
Format                         : AVC
Codec ID                       : V_MPEG4/ISO/AVC
Duration                       : 2 h 29 min
Bit rate                       : 600 kb/s
Width                          : 1 280 pixels
Height                         : 544 pixels
Display aspect ratio           : 2.35:1
Frame rate mode                : Constant
Frame rate                     : 25.000 FPS
Stream size                    : 643 MiB (79%)
Title                          : GOPISAHI
Writing library                : x264 core 155 r2893 b00bcaf

Audio #1
Format                         : AAC
Duration                       : 2 h 29 min
Bit rate                       : 89.6 kb/s
Channel(s)                     : 6 channels
Channel positions              : Front: L C R, Side: L R, LFE
Sampling rate                  : 44.1 kHz
Frame rate                     : 43.066 FPS (1024 SPF)
Compression mode               : Lossy
Stream size                    : 96.0 MiB (12%)
Title                          : GOPISAHI
Language                       : Telugu

Audio #2
Format                         : AAC
Format/Info                    : Advanced Audio Codec
Duration                       : 2 h 29 min
Bit rate                       : 69.1 kb/s
Channel(s)                     : 6 channels
Channel positions              : Front: L C R, Side: L R, LFE
Sampling rate                  : 44.1 kHz
Frame rate                     : 43.066 FPS (1024 SPF)
Compression mode               : Lossy
Stream size                    : 74.1 MiB (9%)
Title                          : GOPISAHI
Language                       : Hindi


Category:Movies > Bollywood
Lang:Hindi
Total Size:815.85 MB
Info Hash:73552897d4a14c1bb9b48377a6c2d345bee53dde
Added By:Unknown
Date Added:15-05-2018 11:41:39
Views:772
Hits:127

Download Torrent

Ratings:Not Yet Rated (Log in to rate it)


Tracker:
udp://9.rarbg.com:2740/announce


File List: 


Comments

No comments still posted

Powered by 10 Hamsters v2-svn -|- Page Generated In 0.309338 secs.
-|- RSS FEED
Theme By: Nikkbu