[Login] or [Signup]
Login
Username:
Password:
[Signup]
[Recover Account]


Poll


You must be logged in to view polls



Torrent Details For "Golmaal Fun Unlimited (2006) DTHRip 576p Hindi H.264 AAC [Exclusive] - LatestHDMovies"

Golmaal Fun Unlimited (2006) DTHRip 576p Hindi H.264 AAC [Exclusive] - LatestHDMovies

Download this torrent | Magnet Download
Health:
Seeds: 0
Leechers: 0
Completed:
Last Checked: 13-05-2018 18:03:22
External Torrent
Update Stats
Download Magnet


Poster


iMDB
Imdb Picture Title: Golmaal: Fun Unlimited
Year: 2006
Runtime: 150 minutes
Votes: 9137
Rating: 7.3/10
Language: Hindi
Country: India
All Genres: Action, Comedy, Drama
Plot Outline: Four runaway crooks take shelter in a bungalow which is owned by a blind couple.
Tagline: Fun unlimited
Director: Rohit Shetty
Writing By: Neeraj Vora,
Produced By: Hiren Gandhi,Dhaval Jatania,Dhilin Mehta,Vikrant Sharma,
Music: Vishal Dadlani Shekhar Ravjiani
Plot:

Gopal, Lucky, Madhav and Laxman - four guys bound together by their child-like notoriety, aimlessness and petty business of conning people for fun and money. Laxman is an intelligent student who is not allowed to pass by his mischievous band of friends Gopal, Madhav and mute Lucky. This is because all four friends use his hostel room to conduct their activities. He is peer-pressured into running a series of scams in order to earn himself and his friends some money. Once thrown out of college bag-n-baggage, the naughty foursome finds refuge in the bungalow of a blind couple as their grandson. A cat mouse game unfolds as Laxman's body and Gopal's voice makes for Sameer (The grandson from US). Each time the blinded Dadaji comes amidst them, hilarious situations arise Enter Nirali with a bath towel and the group now have time, place and 'resources' to fall in love. Their individual efforts at winning the lady's heart, fail, resulting in rib tickling comic scenes. Apart from their amorous interests, there is a quest for hidden treasure in the old couple's house. For, there is also a gangster in this story by the name of Babli who has his own story to tell.

- Written by [email protected][email protected]

Madhav Singh Ghai along with two ex-college slackers, Gopal and Lucky who is mute, team up with college student, Laxman, to extort money from students as well as sell question papers in advance. The four are also on the run from a Garage owner to whom they owe money. While on the run one day, they come across a spacious bungalow occupied by a blind couple, Somnath and Mangala. They overhear that their grandson is to return from New York, and decide to con the couple and live in the bungalow in style. Laxman becomes the grandson, Sameer, while Gopal lends his voice to fool the couple. The four find that they have an attractive neighbor in Nirali and each of them comically propose their love to her. To complicate matters, a gangster is interested in a wooden sealed box in Somnath's house. Hilarious chaos prevails when the hapless foursome find out that Somnath is already aware of them; the gangsters take over the house to claim the wooden box; and the garage owner is all set to recover his loan, at the same time Nirali also enters the scene to declare who she has chosen to be her husband.

- Written by rAjOo ([email protected])

Four absolute-good-for-nothing con-men force themselves into a blind couple's home, pretending that one of them is the couple's America returned grandson. There they meet the beautiful, brainless neighbor Rimi Sen, and promptly fall in love. More foolishness ensues as the foursome evade their debtor Vasool bhai and plan on foiling a gangster's plan to retrieve stolen diamonds.

- Written by Amodini (http://hindimoviereviews.blogspot.com)

Four runaway crooks take shelter in a bungalow which is owned by a blind couple.

- Written by [email protected]
Cast:
Ajay Devgn as Gopal
Arshad Warsi as Madhav Singh 'Madhu' Ghai
Sharman Joshi as Laxman
Tusshar Kapoor as Lucky
Paresh Rawal as Somnath
Rimi Sen as Nirali
Sushmita Mukherjee as Mangala
Vrajesh Hirjee as Pandurang
Farid Amiri as Monty
Siddharth Jadhaw as Sattu supari


Watch-Free-HD     Download

Details
Name:Golmaal Fun Unlimited (2006) DTHRip 576p Hindi H.264 AAC [Exclusive] - LatestHDMovies
Description:




[[>>SAMPLE<<]]
 http://oload.stream/f/I1otf0i...es___TeamSHAHID-.mp4








General
Unique ID                   : 55095741632441013399816160636330488346 (0x29730DC9E349E80A5F3E62BCD41EB21A)
Complete name               : C:\Users\SHAHID\Videos\Golmaal Fun Unlimited (2006) DTHRip 576p Hindi H.264 AAC - LatestHDMovies.mkv
Format                      : Matroska
Format version              : Version 4 / Version 2
File size                   : 1.35 GiB
Duration                    : 2 h 0 min
Overall bit rate            : 1 596 kb/s
Movie name                  : LatestHDMovies | TeamSHAHID
Encoded date                : UTC 2018-05-13 16:40:51
Writing application         : mkvmerge v21.0.0 ('Tardigrades Will Inherit The Earth') 32-bit
Writing library             : libebml v1.3.5 + libmatroska v1.4.8
Cover                       : Yes
Attachments                 : Cover.jpg

Video
ID                          : 1
Format                      : AVC
Format/Info                 : Advanced Video Codec
Format profile              : [email protected]
Format settings             : 3 Ref Frames
Format settings, CABAC      : No
Format settings, ReFrames   : 3 frames
Codec ID                    : V_MPEG4/ISO/AVC
Duration                    : 2 h 0 min
Bit rate                    : 1 500 kb/s
Width                       : 1 024 pixels
Height                      : 576 pixels
Display aspect ratio        : 2.533
Frame rate mode             : Constant
Frame rate                  : 25.000 FPS
Color space                 : YUV
Chroma subsampling          : 4:2:0
Bit depth                   : 8 bits
Scan type                   : Progressive
Bits/(Pixel*Frame)          : 0.102
Stream size                 : 1.26 GiB (94%)
Title                       : LatestHDMovies - TeamSHAHID
Writing library             : x264 core 135
Encoding settings           : cabac=0 / ref=3 / deblock=1:0:0 / analyse=0x1:0x111 / me=hex / subme=7 / psy=1 / psy_rd=1.00:0.00 / mixed_ref=1 / me_range=16 / chroma_me=1 / trellis=1 / 8x8dct=0 / cqm=0 / deadzone=21,11 / fast_pskip=1 / chroma_qp_offset=-2 / threads=2 / lookahead_threads=1 / sliced_threads=0 / nr=0 / decimate=1 / interlaced=0 / bluray_compat=0 / constrained_intra=0 / bframes=0 / weightp=0 / keyint=50 / keyint_min=5 / scenecut=40 / intra_refresh=0 / rc_lookahead=40 / rc=abr / mbtree=1 / bitrate=1500 / ratetol=1.0 / qcomp=0.60 / qpmin=0 / qpmax=51 / qpstep=4 / ip_ratio=1.40 / aq=1:1.00
Language                    : Hiri Motu
Default                     : Yes
Forced                      : No

Audio
ID                          : 2
Format                      : AAC
Format/Info                 : Advanced Audio Codec
Format profile              : LC
Codec ID                    : A_AAC-2
Duration                    : 2 h 0 min
Bit rate                    : 96.0 kb/s
Channel(s)                  : 2 channels
Channel positions           : Front: L R
Sampling rate               : 44.1 kHz
Frame rate                  : 43.066 FPS (1024 SPF)
Compression mode            : Lossy
Delay relative to video     : -36 ms
Stream size                 : 83.0 MiB (6%)
Title                       : LatestHDMovies - TeamSHAHID
Language                    : Hindi
Default                     : Yes
Forced                      : No




 
                             
Category:Movies > Bollywood
Lang:Hindi
Total Size:1.35 GB
Info Hash:4e8d069224f9d1b82bf47cad385bcfbf544017ab
Added By:ShahidHasanzai
Date Added:13-05-2018 18:03:22
Views:592
Hits:27

Download Torrent

Ratings:Not Yet Rated (Log in to rate it)


Tracker:
udp://tracker.openbittorrent.com:80/announce


File List: 


Comments

No comments still posted

Powered by 10 Hamsters v2-svn -|- Page Generated In 1.141280 secs.
-|- RSS FEED
Theme By: Nikkbu