[Login] or [Signup]
Login
Username:
Password:
[Signup]
[Recover Account]


Poll


You must be logged in to view polls



Torrent Details For "Aiyaary 2018 Hindi HDTVRip 720p x264 AAC { TaRa }.mkv"

Aiyaary 2018 Hindi HDTVRip 720p x264 AAC { TaRa }.mkv

Download this torrent | Magnet Download
Health:
Seeds: 2,583
Leechers: 425
Completed: 61,920 
Last Checked: 23-05-2018 10:59:56
External Torrent
Update Stats
Download Magnet


Poster


iMDB
Imdb Picture Title: Aiyaary
Year: 2018
Runtime: 157 minutes
Votes: 490
Rating: 5.2/10
Language: Hindi
Country: India
All Genres: Action, Crime, Drama, Thriller
Plot Outline: Two officers with patriotic hearts suddenly have a fallout. The mentor, Colonel Abhay Singh has complete faith in the country's system while protégé Major Jai Bakshi thinks differently due to a recent stint in surveillance.
Director: Neeraj Pandey
Writing By: Neeraj Pandey,
Produced By: Shital Bhatia,Ashwani Chopra,Akshay Gada,Dhaval Gada,Karan Shah,
Music: Sanjoy Chowdhury
Cast:
Anupam Kher as Tariq Ali
Sidharth Malhotra as Jai Bakshi
Naseeruddin Shah as Baburao Shastri
Rakul Preet Singh as Sonia Gupta
Manoj Bajpayee as Abhay Singh
Simon Bond as Agent John 57
Adil Hussain as Mukesh Kapoor
Atul Sharma as Airline Passenger
Kumud Mishra as Gurinder Singh
Juke Hardy as Commando
Trailers:
Aiyaary Trailer
'Aiyaary' Trailer With Director Neeraj Pandey's Commentary


Watch-Free-HD     Download

Details
Name:Aiyaary 2018 Hindi HDTVRip 720p x264 AAC { TaRa }.mkv
Description:

Aiyaary 2018 Hindi HDTVRip 720p x264 AAC { TaRa }.mkv
 

===================================================================
General
Complete name               : Aiyaary 2018 Hindi HDTVRip 720p x264 AAC { TaRa }.mkv
Format                      : Matroska
Format version              : Version 4 / Version 2
File size                   : 1.35 GiB
Duration                    : 2 h 32 min
Overall bit rate            : 1 272 kb/s
===================================================================
Video
ID                          : 1
Format                      : AVC
Format/Info                 : Advanced Video Codec
Format profile              : [email protected]
Format settings             : CABAC / 4 Ref Frames
Format settings, CABAC      : Yes
Format settings, ReFrames   : 4 frames
Codec ID                    : V_MPEG4/ISO/AVC
Duration                    : 2 h 32 min
Bit rate                    : 1 155 kb/s
Width                       : 1 280 pixels
Height                      : 544 pixels
Display aspect ratio        : 2.35:1
Frame rate mode             : Constant
Frame rate                  : 25.000 FPS
Color space                 : YUV
Chroma subsampling          : 4:2:0
Bit depth                   : 8 bits
Scan type                   : Progressive
Bits/(Pixel*Frame)          : 0.066
Stream size                 : 1.21 GiB (90%)
Title                       : .....::::: TaRa :::::.....
Language                    : Hindi
Default                     : Yes
Forced                      : No
===================================================================
Audio
ID                          : 2
Format                      : AAC
Format/Info                 : Advanced Audio Codec
Format profile              : LC
Codec ID                    : A_AAC-2
Duration                    : 2 h 32 min
Bit rate                    : 128 kb/s
Channel(s)                  : 2 channels
Channel positions           : Front: L R
Sampling rate               : 44.1 kHz
Frame rate                  : 43.066 FPS (1024 SPF)
Compression mode            : Lossy
Stream size                 : 139 MiB (10%)
Title                       : .....::::: TaRa :::::.....
Language                    : Hindi
Default                     : Yes
Forced                      : No
===================================================================


 
 
 
 
 
 
 
 
 
 
 
 
 
 
 
 
 











 


Category:Movies > Bollywood
Lang:Hindi
Total Size:1.35 GB
Info Hash:11f1d3914776c08d62b163a74935925debe59718
Added By:SkTaRa
Date Added:06-05-2018 05:36:22
Views:4,391
Hits:824

Download Torrent

Ratings:Not Yet Rated (Log in to rate it)

  


Tracker:
udp://tracker.coppersurfer.tk:6969/announce


File List: 


Comments

No comments still posted

Powered by 10 Hamsters v2-svn -|- Page Generated In 3.504682 secs.
-|- RSS FEED
Theme By: Nikkbu